Beatles Flac

Beatles Flac2013 - The Beginnings Of The Beatles From Hamburg To London CD01 - CD02 - CD03 - CD04. 2016 - Live At The Hollywood Bowl. 2016 - Abbey …. The Beatles ; Music / Web Album, VA - 500 Greatest Songs of All Time by Rolling Stone Magazine (2021) [FLAC (tracks)] Золотой релиз. 4.7.. The Beatles - Anthology Outtakes (Studio FLAC) Anthology Outtakes Publisher: Beat Central Reference :CT-200411/CT-200412 Date :2004 Made In :Japan. The Beatles Deluxe Collection (Free Download! Get it while it's hot!) New Release I've spent a few months on and off working on a "Deluxe" version of each album. They are finally complete, and I'd love to share them with the world! These versions include: Each album (of course) The single corresponding to each album. The best howtos and guides for me, when setting up EAC, were the Hydrogenaudio wiki and the Hydrogenaudio forums The Beatles …. The Beatles: Get Back - The Rooftop Performance is an answered prayer for many Beatles fans who were saddened by its absence on the lavish Let It Be box set issued in the fall, which contained. FILE "The Beatles - Beatles VI (US Mono) (1965) [T 2358].flac" WAVE TRACK 01 AUDIO TITLE "Kansas City" INDEX 01 00:00:00 TRACK 02 AUDIO TITLE "Eight Days A Week" INDEX 01 02:37:09 TRACK 03 AUDIO TITLE "You Like Me Too Much" INDEX 01 05:23:59 TRACK 04 AUDIO TITLE "Bad Boy" INDEX 01 08:02:11. [Album] The Beatles – The Beatles (White Album) (50th Anniversary)[FLAC Hi-Res + MP3] Released: 2018. Genre: Rock, Pop Bitrate: FLAC 24bit 96khz 5.1 ch.. Love Me Do The Beatles 2020 From £1.49. 16-bit FLAC. Preview Love Me Do (With Andy White, 11Sep62) Love Me Do (With Andy White, 11Sep62) The Beatles 2019 From £0.69. 16-bit FLAC. Preview I Saw Her Standing There (Hamburg, 31Dec62) I Saw Her Standing There (Hamburg, 31Dec62) The Beatles 2019 From £0.69. 16-bit FLAC. Audio: English / Dolby. Free Lossless Audio Codec (FLAC) is an audio compression codec primarily authored by Josh Coalson. FLAC employs a lossless data compression algorithm. A digital audio recording compressed by FLAC can be decompressed into an identical copy of the original audio data. Audio sources encoded to F… read more.. The Beatles - Star Club 1962 (FLAC) John Lennon - Come On, Listen To Me (FLAC) John Lennon - Remember New York City (FLAC) About Me. Gunther Shabadu. 【T-ポイント5倍】 The Beatles ザ・ビートルズ STEREO USBメモリ・エディション 世界限定品 【Limited Edition, Import】 1着でも送料無料 - …. 12. “ September in the Rain ” (1962) Another fine early McCartney vocal performance, also recorded as part of the Decca audition. This strutting piece of romantic defiance features Pete Best. In my infinite 'wisdom' I am writing/compiling yet another book about some group called The Beatles, the theme being their links/connections to …. The Beatles - A Collection Of Beatles Oldies (UK Mono) [PMC 7016].flac download 151.5M The Beatles - Sgt. Pepper's Lonely Hearts Club …. 16 The Beatles - Get Back #4.flac 17 The Beatles - Don't Let Me Down #2.flac 18 The Beatles - Get Back #5.flac 19 The Beatles - Stage Settings.flac 20 The Beatles - Get Back.flac 21 The Beatles - Don't Let Me Down.flac 22 The Beatles - I've Got A Feeling.flac 23 The Beatles - One After 909.flac 24 The Beatles - Danny Boy.flac. The Yardbirds - Live At The BBC 1965-1968 (Repertoire 2016) FLAC UK Pop Rock Psychedelic Blues s flac 29 MB; 04 PERFORMER "Beatles" INDEX 01 00:00:00 FILE "07 - One After 909 Pbthal, spectrum analysis shows FLAC for this EP to be remarkably similar to his red wax LP FLAC, and indeed it sounds like it (see also remarks for pbthal's EP FLAC for "Chains") to is the largest czech cloud. FLAC: Beatles: Alternate Sgt Pepper PearAbbey Road Pear: Hungercity: 2070: 2007-05-24: 1: CDAudio: FLAC: Beatles: Alternate Yellow Submarine Pear: Hungercity: 2007-05-31: 1: CDAudio: FLAC: Beatles: Anthology 1-10: TheTraderDen: 2006-11-01: 10: DVD: Beatles: Artifacts I & II: Hungercity: 12679: 2013-02-21: 10: CDAudio: FLAC: Beatles: Artifacts III: Hungercity: 15136: 2013-02-21: 4: CDAudio. The Beatles là ban nhạc rock người Anh hoạt động trong thập niên 1960. Với 4 thành viên John Lennon, Paul McCartney, George Harrison và Ringo Starr, bộ tứ trở thành nghệ sĩ thành công nhất và ảnh hưởng nhất thời kỳ huy hoàng của nhạc rock. The Beatles - Abbey Road (Super Deluxe Edition) (2019 - Hires) [FLAC] | —CD 01. The Beatles (The Original Studio Recordings) – also known as The Beatles: Stereo Box – is a boxed set compilation comprising all remastered recordings. Torrentbit.net - the beatles torrents search …. Search results for the beatles torrents (1-50 of 500) 15 Jul 2015: the beatles (Download through private server) 15 Jul 2015: Desktop. The Beatles or "The White album" as it became better known was released on 22nd November, 1968 on the fifth anniversary of their second album, …. The box set, by contrast, does a better job protecting the CD. Any shortcomings are more than compensated for with the liner notes and groves of new, unseen photos. The aesthetics politely put aside, let’s have a listen. Remastering the Beatles catalog was an extensive and time-consuming process.. Choose items to buy together. This item: 1 Remixed/Remastered. by The Beatles Audio CD. $12.49. In Stock. Sold by World Wide Entertainment and ships from Amazon Fulfillment. Get it as soon as Saturday, May 14. The Beatles: 1967-1970 (The Blue Album) (2CD) by The Beatles Audio CD.. Search: Index Of Beatles Flac. flac Moving files from the System drive to a Media Drive 2M The Beatles -10- Child of Nature flac download 15 96 GB 2018-11-13 0 0 We All Wanna Sound Like The Beatles / Rock / 1994 / FLAC / Lossless to is the largest czech cloud storage to is the largest czech cloud storage.. The Beatles In Mono (2009) (MP3/Flac) Cover del box set "The Beatles In Mono", lanzado en septiembre de 2009. I Saw Her Standing There / Misery / Anna (Go To Him) / Chains / Boys / Ask Me Why / Please Please Me / Love Me Do / P.S. I Love You / Baby It's You / Do You Want To Know a Secret / A Taste Of Honey / There's A Place / Twist And Shout.. According to the Beatles.com announcement, they'll be in 44.1kHz/24-bit format and not 48/24. “It was an analog process from that point on,” Rooke comments. “The tracks came out of Pro Tools through the Prism AD8s into the analog domain and were then injected into the studio’s 1972 EMI TG mastering console.. FLAC. Test page flac streaming till 1411 kbps. Click HERE for streaming to listen the FLAC stream. Google Chrome browser or Windows Edge is needed The music player on the right is in 320 kbps For playlist click here.. https://drive.google.com/drive/folders/1oQ7FtMVyAfe8UMb9Q3v1M6u-ysTfmt4z?usp=sharing Here is the link to both the Beatles in 24 Bit FLAC and . Beatles By 5 (FLAC) Related Posts: Audio CD Number of Discs: 1 Format: FLAC (image+cue) Label: Intersound Records Size: 159 MB Recovery: +3% Scan: yes. 01. Eleanor Rigby 02. Here, There and Everywhere 03. In My Life 04. And I Love Her 05. Strawberry Fields Forever/The Fool on the Hill 06. When I'm Sixty-Four 07. Michelle 08. Nowhere Man. The Beatles Compilation Albums; EPC-CD044 EPC-CD045: UK EP Collection: all of their regular issue UK EPs: DRC 04501 DRC 04502 DRC 04503: The U.S. Singles Collection: all A/B sides of their original regular issue US singles, with the exception of the Tony Sheridan material: R6266 45A R6770 45B:. The Beatles, EAC, FLAC, CD Language English. EAC rip. Addeddate 2020-05-25 12:40:00 Identifier the-beatles-1-flac Scanner Internet Archive HTML5 Uploader 1.6.4.. 1968 - The Beatles [EP] A group EP released to coincide with the four solo albums. This was done to let the fans know that the group was not breaking up, just pursuing temporary solo projects. John and George both include alternate versions of their songs on their LPs. Hey Jude.. The Beatles ザ・ビートルズ STEREO USBメモリ・エディション 世界限定品 【Limited Edition, Import】 1着でも送料無料 . カテゴリ: 音楽; CD; ロック、ポップス(洋楽) ロック、ポップス一般; B; Beatles , The; その他;.. Wednesday, 19 December 2012. Another triumphant success for director Joseph Swensen and the Scottish Chamber Orchestra. Under Swensen's powerful …. Results 1 - 25 The Beatles The Complete Discography of Original Studio Albums 320 and collectibility in the 90s Beatles Discography Flac Tpb books, ebooks, …. About Flac 24 Beatles Download Bit.Beatles Bootleg DVD list. 1 / 48 kHz / 4238 kbps / 24-bit (DTS Core: 5. The Beatles 1 2015 Mqs Sd Card 44 1khz …. Beli The Beatles Discography FULL ALBUM [FLAC]. Harga Murah di Lapak LuckyPlazaStore. ✓ Pengiriman cepat ✓ Pembayaran 100% aman.. The Beatles - Washington DC - Credit to theINDrAS Across the Universe Soundtrack - Credit to Pangeran_kucin6 Real Love Album ( Flac 73MB Cover) …. Disc 1: 01 – Back In The U.S.S.R. (2018 Mix) 02 – Dear Prudence (2018 Mix) 03 – Glass Onion (2018 Mix) 04 – Ob-La-Di, Ob-La-Da (2018 Mix) 05 – Wild Honey Pie (2018 Mix) 06 – The Continuing Story Of Bungalow Bill (2018 Mix) 07 – While My Guitar Gently Weeps (2018 Mix) 08 – Happiness Is A Warm Gun (2018 Mix) 09 – Martha My Dear (2018 Mix). AUD -- some hiss, otherwise very clear We also have available 18 shows from the 2003 world tour in FLAC format with MP3 versions coming soon This blog is a …. Sessions. unreleased Capitol LP - with two special Dr. E outfake bonus tracks - "One After 909" complete in stereo remixed and "Let It Be" with both solos. SPRO 9463. Collectors Items. unreleased Capitol LP - with two special Dr. E outfake bonus tracks - "She Loves You" in stereo and "I Am The Walrus" in stereo throughout the entire song. SPRO. 2 Beatles 24 Bit FLAC and Mono Music https://drive.google.com/drive/folders/1oQ7FtMVyAfe8UMb9Q3v1M6u-ysTfmt4z?usp=sharing Here is the link to both the Beatles in 24 Bit FLAC and mono for all of you who havent experienced them in this format.. Por Siempre Beatles (1971) The Beatles Solo demostración. Calidad 128 kbps. Si usted quiere máxima calidad, flac, wav, etc., compre el cd. Just a demo.. The core UK albums released during The Beatles' time together, 1963-1970: Please Please Me (1963) With The Beatles (1963) A Hard Day's Night (1964) Beatles For Sale (1964) Help! (1965) Rubber Soul (1965) Revolver (1966) Sgt Pepper's Lonely Hearts Club Band (1967) The Beatles (White Album) (1968) Yellow Submarine (1969) Abbey Road (1969) Let It. The FLAC files are 24 bit, but they are sampled at only 44.1 kHz sample rate, not 192kHz. Having said that, I just burned a DVD-A of Abbey Road (using the freeware app DVD-Audiofile 0.81 for Mac OSX) and listened to the entire album-it is easily the best version I have ever heard, including the recent stereo and mono CD remasters and all the others (vinyl, CD and otherwise) before it.. The album provides historic insight into the group's club act in the period after Ringo Starr joined but before the emergence of Beatlemania. The …. the-beatles-1-flac_meta.sqlite: 25-May-2020 12:40: 11.0K: the-beatles-1-flac_meta.xml: 19 …. Threads Tagged with the beatles. The Beatles 1970-01-xx Thirty Days (Vigotone) (FLAC) ( 1 2 3) The Beatles 1964-09-02 Convention Hall Philadelphia PA. Mono Reel To Reel to Reel (16-bit) (FLAC) ( 1 2) The Beatles 1964-09-02 Convention Hall Philadelphia PA. Mono Reel To Reel to Reel (24-bit) (FLAC). (Rock) [WEB] The Beatles - The Beatles (The White Album) (Super Deluxe Edition) - 2018, FLAC (tracks), lossless » Classic Rock & Hard Rock …. The Beatles - Sgt. Pepper's Lonely Hearts Club Band flac download. Rock. FLAC.. The Beatles EP (Hey Jude/Revolution/While My Guitar Gently Weeps/Don't Pass Me By) Beatlemania has faded, the summer of love is a year past and the Beatles have returned from India where they went looking for enlightenment. They came back from the trip with a new outlook on life in general and their careers specifically. John, Paul and George. the beatles, arrive without travelling: remastered edition, 2011 remasters workshop edition, a, cr the beatles, magical mystery year: deluxe edition …. Aug 19, 2015 The Beatles - Stereo Box Set (2009) USB Limited Edition 24 bit/44,1 kHz The Beatles - A Hard Day's Night (1964/2009) FLAC (tracks) 24 bit/44,1 kHz Time - 30:09 minutes 445 MB Tracklist: 01 - A Hard Day's Night 02 - I Should Have Known Better 03 - If I Fell 04 - I'm Happy Just To Dance With You 05 - And I Love... Product specs: 16GB USB stick housed in a green aluminum apple Contains full contents of The Beatles' stereo box set *Please Please Me *With The Beatles *Hard Day's Night *Beatles For Sale *Help *Rubber Soul *Revolver *Sgt. Pepper's Lonely Hearts Club Band *Magical Mystery Tour *The Beatles (White Album) *Yellow Submarine *Let It Be *Abbey Road. Download rock album by The Beatles - 1 (One) (2015) FLAC 5.1. Hello! Please login. New. Lost. Music Search. To immediately find what you need to enter a keyword in the form below. If you need more precise search, use the option «Advanced. The FLAC Beatles is the best effing Beatles I have ever heard. Just beats the hell out of me. I mean upsampling I can kinda understand, what with brick wall filters and pre-ringing etc. But adding -48dB of dynamic range, especially when it is almost certainly below the noise floor of the recording itself, let alone the replay equipment.. Product Description. Brick Version. This box set contains stereo and mono versions of the four Beatles albums released by Capitol in 1965, namely "The Early Beatles", "Beatles VI", "Help!" and the American version of "Rubber Soul". The albums were mastered from the original Capitol tapes using 24-bit digital technology.. Filename Size Created; The Beatles_The Lost Album (Two and a Half)_2019_12CD_FLAC.part1.rar Size: 910.00 MB. Created: 7 months, 2 …. (Various FLAC) The Beatles "The Complete 'Purple Chick' Live Collection" all including full artwork "Strong Before Our Birth" DISC ONE 6 July, 1957 1: …. Access Google Drive with a Google account (for personal use) or Google Workspace account (for business use).. 20 Hey Jude (Take 9) (Stereo) This compilation includes most of the unreleased White Album mixes that remain in collectors circles only. …. The Beatles – 1+ Released: 2015 Genre: Rock Bitrate: FLAC & MP3 320 KBPS. Tracklist: Disc 1: Love Me Do From Me to You She Loves You I Want to Hold Your Hand Can’t Buy Me Love A Hard Day’s Night I Feel Fine Eight Days a Week Ticket to Ride Help! Yesterday Day Tripper We Can Work It Out Paperback Writer. Disc 2: Yellow Submarine Eleanor. The only Beatles album that could really be classified as inessential, mostly because it wasn't really a proper album at all, but a soundtrack that only …. FLAC, compared to Tube-Cut FLAC, has the Left (instrumental) channel somewhat louder Search Torrents Category for Various Artists - Beatles 69 Vol 2 …. The Beatles - Love (2006) FLAC. TRACKLIST 01- Because (2:45) 02- Get Back (2:05) 03- Glass Onion (1:20) 04- Eleanor Rigby - Julia . The Beatles - Hours of Darkness (VAR/FLAC) 14 CD's; Pink Floyd - 1967-1988 - Some More Secrets (STU/FLAC) ASUS ROG Zephyrus G14 2021 Review Hindi | MacBook Air M1. 48 Takes Of Strawberry Fields Forever. A Day In The Studio.. Download rock album by The Beatles - The Beatles (The White Album) (50th Anniversary) (2018) FLAC 5.1. Hello! Please login. New. Lost. Music Search. …. The Beatles - Let It Be Artist: The Beatles | Album: Let It Be | Style: Rock | Year: 2021 [1970 original] | Quality: DVD-Audio (MLP 5.1 96kHz/24Bit, MLP 5.1 48kHz/24Bit, PCM 2.0 96kHz/24Bit)| Bitrate: lossless | Tracks: 12 | Size: ~4 Gb | Recovery: 3% | Covers: only front | Release: rip and authoring to DVD-Audio by dida_55 from Blu-ray Apple Records / Universal Music Group International. Listen. Full name of the track: The Beatles-Artifacts III Disc 1 (1969-1971) - 22 - John’s_31st_Birthday. Song: Yellow Submarine. Album: Revolver. Length: 2:47. Bootleg album: The Beatles Artifacts III. Take: None. Recorded: On John’s 31st birthday. On October 9 1971 in a hotel room in Syracuse New York.. Download: Beatles Flac Let It Be, Found: 5 Results, Updated: 25-Jul-2022.. About Flac Blogspot Beatles. Apple Scruffs – George Harrison (1970) 96KHz/24bit FLAC 4K Video ~MetalGuruMessiah~ “Apple Scruffs” …. The Beatles - Discography (1963-2017) [FLAC] Gatunek: Rock. Kraj: Wielka Brytania. Rok: 1963 - 2017. Kodek audio:FLAC. Bitrate audio:LOSSLES. Waga: 62.7 GB. The Beatles - zespół rockowy z Liverpoolu, działający od 1960 (wcześniej jako The Quarrymen od 1956 r., Beatals, The Silver Beats, The Silver Beetles i The Silver Beatles) do 1970 roku.. The Beatles in FLAC - Audiophile Quality Beatles Stereo Catalog in the Beatles USB Memory Stick By Jackson Weinheimer | Submitted On …. The box set, by contrast, does a better job protecting the CD. Any shortcomings are more than compensated for with the liner notes and groves of new, unseen photos. The aesthetics politely put aside, let's have a listen. Remastering the Beatles catalog was an extensive and time-consuming process.. Beatles Flac download on RapidTrend.com rapidshare search engine - The Beatles 2009 Rubber Soul 2009 Remaster FLAC part1, fullman The Beatles 2009 Yellow Submarine 2009 Stereo Remaster FLAC part1, . Free Search Engine for Rapidshare Files. Type what you are looking for in the box bellow, hit search and download it from RapidShare.com!. This Site is Inactive This site has been marked as inactive because no members have logged in recently.. Rock in Japan / 日本武道館 (The Beatles Live At Nippon Budokan Hall - 1966) The Beatles 2021 From £1.99. 16-bit FLAC. Studio Sessions (The Making Of Sgt Pepper's Album (Vol. 2)) The Beatles 2021 From £1.99. 16-bit FLAC. Les Beatles The Beatles 2021 From £1.99. Erich Kunzel & Cincinnati Pops Orchestra perform Music of The Beatles, feat.. px5 mcu update. Free download Download The Beatles catalog is available at a great price on iTunes for a limited time this. The Beatles' nine U.K. albums, the American-compiled Magical Mystery Tour, 9 Nov 2009 Beatles Discography on Apple USB Drive in FLAC/MP3 Flavor This is one of the very few digital distributions of the Beatles music to the. Sep 30, 2019 · Obviously, the core is the Double. discord default avatar black. The Beatles - Washington DC - Credit to theINDrAS Across the Universe Soundtrack - Credit to Pangeran_kucin6 Real Love Album …. Here is the link to both the Beatles in 24 Bit FLAC and mono for all of you who havent experienced them in this format. I know listening to them in these specific ways can be difficult to achieve, but i hope this helps someone out. 4 comments 90% Upvoted Log in or sign up to leave a comment Log In Sign Up Sort by: best level 1 · 5 mo. ago. The Beatles là ban nhạc rock người Anh hoạt động trong thập niên 1960. Với 4 thành viên John Lennon, Paul McCartney, George Harrison và Ringo Starr, bộ tứ trở thành nghệ sĩ thành công nhất và ảnh hưởng nhất thời kỳ huy hoàng của nhạc rock. The Beatles – Abbey Road (Super Deluxe Edition) (2019 – Hires) [FLAC] | —CD 01. It was issued only in the United States, Canada and Japan (in the 1970s). Records 109 - 1994 The Beatles - Lossless - The 'Let It Be' Rehearsals, Vol. The Beatles - Lossless - 1963-12-07 Empire Theatre, Liverpool, England (1970) The Beatles - Lossless - 1992 Cd Singles Collection - Cd BSCP 1 (1970) (FLAC) Abbey Road (24 Bit USB Drive 2009. Title: The Beatles And Solo Greatest Hits Collection Artist: The Beatles Year: 2013 Genre: Pop rock Format / Codec: Flac. Tracklist. Spoiler: 1. The Beatles - A Hard Day\'s Night [02:34] 2. The Beatles - All My Loving [02:07] 3. The Beatles - All You Need Is Love [03:51] 4. The Beatles - And I Love Her [02:29]. This discusses the audio upgrades recently done to the Beatles recordings. It is meant to give fans curious about the new audio format information they need to determine if they would like to upgrade their Beatles record collection from old CDs to new CDs, or from CDs to USB high-resolution FLAC files.. The Beatles - Discography (1963-2017) [FLAC] Gatunek: Rock. Kraj: Wielka Brytania. Rok: 1963 - 2017. Kodek audio:FLAC. Bitrate audio:LOSSLES. …. Pbthal, spectrum analysis shows FLAC for this EP to be remarkably similar to his red wax LP FLAC, and indeed it sounds like it (see also …. Much travel, went to bed leaving the for the end of the century. Was narrowly watching every district, is said to have granted certain lands to a company of …. You can currently download the The Beatles - The Beatles' 1968 Christmas Record album for free in mp3, flac formats at m.mahlzeit.it. It is also possible to buy . Tracklist:. Love Me Do The Beatles 2020 From £1.49. 16-bit FLAC. Preview Love Me Do (With Andy White, 11Sep62) Love Me Do (With Andy White, 11Sep62) The Beatles 2019 From £0.69. 16-bit FLAC. Preview I Saw Her Standing There (Hamburg, 31Dec62) I Saw Her Standing There (Hamburg, 31Dec62) The Beatles 2019 From £0.69. 16-bit FLAC.. Ozric Tentacles - Bootlegs Collection (26 Live Bootlegs) (1992-2012) FLAC. Progressiverock. Dec 6, 2021. 6. 875. 4 h ago.. Fab Forum. The Beatles' albums in order – complete list! Welcome to the Beatles Bible! Recording, mixing: Come And Get It, Sun King, Mean Mr Mustard. Days in the life: The Beatles' history. Recording: Oh! Darling, Come Together, The End. Recording: Sun King, Mean Mr Mustard, Come Together, Polythene Pam, She Came In Through The Bathroom Window.. If you’re in the market for some FLAC format lossless music – from indie to jazz to classical - as well as the 24-bit downloads (for an extra charge) you can try the following sites: HDTracks – The site boasts of one of the largest lossless FLAC collections for sale online. While HDTracks isn’t itself a label, it is used as a repository. Download surround sound and lossless music | DVD-Audio, DTS-CD, SACD, Audio-DVD, DTS 5.1, DVD, FLAC, APE | Archive of surround sound and lossless music for free. Hello! Please login. New. Lost. Music Search. To immediately find what you need to enter a keyword in the form below. Beatles, Rock, FLAC 5.1. Comments (2) More about disc. This is the first time The BEATLES (‘White Album’) has been remixed and presented with additional demos and session recordings. The album’s sweeping new edition follows 2017’s universally acclaimed Sgt. Pepper’s Lonely Hearts Club Band Anniversary Edition releases.. THE BEATLES MFSL Vinyl/LP collection has been selling on eBay for years and are very expensive. Each Beatles MFSL album sells for as much as $500.00 while the whole BEATLES MFSL collection sells for as much as $5000.00. It is a shame that Mobile Fidelity Sound Lab (MFSL) has never released THE BEATLES catalog on CD.. Most valued Beatles albums - a friend of my dad past away and while they where gatheing his stuff they came across some old albums and single releases these are in mint condition still in there covers never played or opened. and had them appraised in New York-64 VeeJay Anna ask me why $30,000 62 Decca 45 My Bonnie(as tony sheridan & beat. Fans around the world have been exploring The Beatles' January 1969 sessions and rooftop performance with last fall's celebrated release of the band's remixed, expanded Let It Be Special Edition (Apple Corps Ltd./Capitol/UMe), Peter Jackson's "The Beatles: Get Back" docuseries (Disney/Apple Corps Ltd./WingNut), and the collectible hardcover book also titled The Beatles: Get Back. The Beatles – 1 (2000, FLAC) Publication date 2000 Topics The Beatles, EAC, FLAC, CD Language English. EAC rip. Addeddate 2020-05 …. The Beatles - Abbey Road (Remastered) (FLAC) (Mp3) Pistas 01. Come Together 02. Something 03. Maxwell's Silver Hammer 04. Oh! Darling 05. Octopus's Garden 06. I Want You (She's So Heavy) 07. Here Comes The. Pistas 01. Come Together 02. Something 03. Maxwell's Silver Hammer 04. Oh! Darling 05.. Format : Flac (tracks) Quality : 16bit – 44 The Beatles 87 GB: 4 0: 14 Окт 20: The Beatles ‎- Love Songs [Vinyl-Rip] (1977) FLAC : 1: 1 FILE "The Beatles - Revolver Set the options in Windows media player or other software to use a high bit rate when you rip your CDs to MP3 or flac files Set the options in Windows media player or other. The most notable songs of that period were Michelle, Yesterday, Eleanor Rigby, Help!, Nowhere Man, A Day in the Life, Norwegian Wood, Lucy in the Sky with Diamonds, Yellow Submarine, Penny Lane, Strawberry Fields, The Fool on the Hill, Hey Jude. Two of The Beatles, Paul McCartney and John Lennon, also had their own projects.. © 2022 Intense Radio, we love Dance! Play 90s hits, zero and today dance @night House melodic Techno tracks. All Rights Reserved.. Category Name Uploaded Size SE LE ULed by · Audio > OtherThe Beatles-Anthology 1-3 [6 cd Collection][email protected] 2011-05-28 · Audio > FLACThe Beatles - . The Beatles - Hours of Darkness (VAR/FLAC) 14 CD's; Pink Floyd - 1967-1988 - Some More Secrets (STU/FLAC) ASUS ROG Zephyrus G14 2021 Review …. The Beatles - Abbey Road (Original Recording Remastered) '1969/2009 (Classic Rock) Hi-Res 24bit/48kHz - FLAC FILE. Sep 17, 2019 The last …. Albums · The Beatles — Get Back (The Rooftop Performance) (Lossless, Hi Res 2022) · The Beatles — Get Back (The Rooftop Performance) (lossless, 2022) · The Beatles . Download The Beatles - Let It Be / Rarities FLAC album free.. 300.000 Beatles Fans Can't Be Wrong (CD) Living Legend: 6 April - 1 August 1965: Beat DVD: 6 June - 29 November 1964: Beat DVD: A Cam - B Cam Stereo At Twickenham (CD) 1969-01-03: Yellow Dog: Studio: A Collection Of Beatles Oldies ~ Mono: Odeon: A Day In The Life (CD) Yellow Dog: A Doll's House ~ 25 More Alternate White Album Mixes (CD) Odeon. The Beatles (discografía completa, formato FLAC, remasterizada) 54225338. Disfrute de las eternas canciones de la legendaria banda de Liverpool con . The Lost Album series brings together all Beatles material never officially released to this date (August, 2020): home demos, studio demos, …. Bastille - Bad Blood.flac Bastille - Pompeii.flac Beatles - Girl.flac Beatles - Help!.flac Beatles - Here Comes the Sun.flac Beatles - Let It Be.flac Beatles - No Reply.flac Beatles - Yellow Submarine.flac Beatles - Yesterday.flac Beatles - You're Gonna Lose That Girl.flac Beck - E-Pro.flac Beck - Everybody's Gotta Learn Sometimes.flac Beck. lll➤ Download Let It Be (Super Deluxe) by The Beatles ➔ 【 Free Download MP3 ZIP Archive + FLAC 】 ✓ — flacrock.. Artist: The Beatles Title: From Kinfauns To Chaos: White Sessions Volume Three Year Of Release: 2004 Label: Not On Label (Unofficial Release) Genre: Pop Rock Quality: EAC Rip -> FLAC (Img+Cue, Log) / MP3 CBR320 Total Time: 2CD (01:08:00 + 01:06:01) Total Size: 763 / 341 Mb (Full Scans). Исполнитель: The Beatles Альбом: The Beatles - 2009 Remasters - Stereo Box Set (16-CD) 1963-1988. Год выпуска: 2009. Жанр: Rock Аудио: FLAC / 10:19:52 / 4 . The Beatles - We Can Work It Out (2021) Posted by NewAlbumReleases.net On January - 30 - 2021. Artist: The Beatles. Album: We Can Work It Out. Released: 2021. Style: Rock. Format: MP3 320Kbps. Size: 34 Mb. Read the rest of this entry ».. EAC rip. Addeddate: 2020-05-25 12:40:00. Identifier: the-beatles-1-flac.. FILE "The Beatles - Beatles VI (US Mono) (1965) [T 2358].flac" WAVE TRACK 01 AUDIO TITLE "Kansas City" INDEX 01 00:00:00 TRACK 02 AUDIO TITLE …. Download rock album by The Beatles - 1 (One) (2015) FLAC 5.1. Hello! Please login. New. Lost. Music Search. To immediately find what you need to …. THE BEATLES DTS. Sgt Pepper's Lonely Hearts Club Band 5.1 DTS. Magical Mystery Tour 5.1 DTS. Abbey Road 5.1 DTS. A Collection Of Beatles Oldies 5.1 DTS. THE BEATLES. Please Please Me is the debut studio album by the English rock band the Beatles. Produced by George Martin, it was released on EMI's Parlophone label on 22 March 1963 in the United Kingdom, following the success of the band's singles "Please Please Me" and "Love Me Do", which reached number 1 on the NME and Melody Maker charts and number 17 on the UK Singles Chart, respectively.. Artista: The Beatles Álbum: The White Album (Remastered) Año: 1968. Genero: Rock Formato: Flac / Mp3 320 Kbps Pass: barboverde.. beatles, cd, bluray, flac, 1+, deluxe, music, DTS.. The Beatles intended the album that became Let It Be as a back-to-basics move, deciding to hunker down with a bunch of rockers they could play live -- to get back where they once belonged, as it were. Things didn't go so easily. The group decided that they'd document the entire process of recording and rehearsing on film, culminating in a live. Aug 19, 2015 The Beatles - Stereo Box Set (2009) USB Limited Edition 24 bit/44,1 kHz The Beatles - A Hard Day's Night (1964/2009) FLAC (tracks) 24 bit/44,1 kHz Time - 30:09 minutes 445 MB Tracklist: 01 - A Hard Day's Night 02 - I Should Have Known Better 03 - If I Fell 04 - I'm Happy Just To Dance With You 05 - And I Love Her 06 - Tell Me Why 07.. Great device, fine music, but too expensive ! This device contain all the Beatle's albums plus the Past Masters 1 & 2 on high res mp3 and 24 bits FLAC (to . Here is the link to both the Beatles in 24 Bit FLAC and mono for all of you who havent experienced them in this format. I know listening to them in these specific ways can be difficult to achieve, but i hope this helps someone out.. Dr. Ebbetts. Source: Dr. Ebbetts version 2 of the unreleased US album. Lineage: cd > eac [sercure] 16bit 44.1khz wav > Flac16. 01. Come And Get It - take 1. 02. Leave My Kitten Alone - take 5. 03. Not Guilty - take 102.. The Beatles were an English rock band formed in Liverpool in 1960. With the line-up comprising of John Lennon, Paul McCartney, George …. The Beatles 1965 - Rubber Soul (LP vinyl-rip flac). Formato: FLAC Tamaño Rar: 231,90 MB INFO: Rubber Soul, es el sexto álbum de estudio de . The Beatles - 1+ Released: 2015 Genre: Rock Bitrate: FLAC & MP3 320 KBPS. Tracklist: Disc 1: Love Me Do From Me to You She Loves You I Want to Hold Your Hand Can't Buy Me Love A Hard Day's Night I Feel Fine Eight Days a Week Ticket to Ride Help! Yesterday Day Tripper We Can Work It Out Paperback Writer. Disc 2: Yellow Submarine Eleanor. Revolver is the seventh studio album by the English rock band the Beatles. It was released on 5 August 1966, accompanied by the double A-side single "Eleanor Rigby" / "Yellow Submarine". The album was the Beatles' final recording project before their retirement as live performers and marked the group's most overt use of studio technology to date, building on the advances of their late 1965. Painstakingly remastered over a period of four years, The Beatles Stereo Box Set is a groundbreaking collection, with state of the art recording technology mixing …. The Beatles – Stereo Box Set (2009) [USB Limited Edition 24-44,1] FLAC (tracks) 24 bit/44,1 kHz | Time – 619:03 minutes | No Art | 7,32 GB. 1/ Air Supply - 1993 - The Vanishing Race [FLAC - Lossless - Log] 01 - It's Never Bad Boy) 16-bit FLAC Preview BBC Archives Vol 7 - December 1963 / …. the-beatles-1-flac_meta.sqlite: 25-May-2020 12:40: 11.0K: the-beatles-1-flac_meta.xml: 19-Feb-2021 09:33: 787.0B. The Yardbirds - Live At The BBC 1965-1968 (Repertoire 2016) FLAC UK Pop Rock Psychedelic Blues s flac 29 MB; 04 PERFORMER "Beatles" INDEX 01 00:00:00 FILE "07 - One After 909 Pbthal, spectrum analysis shows FLAC for this EP to be remarkably similar to his red wax LP FLAC, and indeed it sounds like it (see also remarks for pbthal’s EP FLAC for “Chains”) to is the largest czech cloud. Un poco de lo que fue el Tributo a The Beatles con @infiltradosenmarte y Los.. Search: Index Of Beatles Flac. I checked all the computer settings and all is as it should be - the Lyngdorf amp correctly indicates 96kHz as the incoming digital signal, using either Foobar or J River Media Center, on a Win7 machine with WASAPI 0 MB) 04 - Ob-La-Di, Ob-La-Da It is the same material that was released on the CDs this fall, but in a much more convenient delivery system 7z archive. The Beatles - Anthology Outtakes (Studio FLAC) Anthology Outtakes Publisher: Beat Central Reference :CT-200411/CT-200412 Date :2004 Those new mixes had nothing to do with the Beatles. Also included here are several of the Threetles tracks that they recorded as they were working on John's demo's. I've not found these elsewhere.. The Beatles - Star Club 1962 ( FLAC ) John Lennon - Come On, Listen To Me ( FLAC ) John Lennon - Remember New York City ( FLAC ). razer blackwidow …. Part 1. Untouched: Revision A. Upgraded source of Glyn Johns' early mix acetate (March 10, 1969) containing the 'rough mix' work-in-progress of …. Most people can’t tell the difference between a well-encoded lossy file vs. a FLAC file in blind tests, so I’m sure you wouldn’t notice the difference between 24 and 16 bit FLAC. The 24 bit remasters have been compared to the 16 bit CD masters and they’re basically identical. The extra 8 bits just bloats the file size.. The Beatles – Stereo Box Set (2009) [USB Limited Edition 24-44,1] FLAC (tracks) 24 bit/44,1 kHz | Time – 619:03 minutes | No Art | 7,32 GB. 14 …. The Beatles's channel, the place to watch all videos, playlists, and live streams by The Beatles on Dailymotion. Search. Library. Log in. Sign up. The Beatles. 13 videos. Follow. All videos. 02:11. The Beatles. The Beatles - Eleanor Rigby. 04:00. The Beatles. The Beatles - Lucy In The Sky With Diamonds. Most viewed. 03:48.. Original Beatles' stereo albums up to 1968 (including the 2009 remasters) sound weird, due to the recording process where mono was the aim and …. The Beatles - Discography (1963-2017) [FLAC] Gatunek: Rock. Kraj: Wielka Brytania. Rok: 1963 - 2017. Kodek audio:FLAC. Bitrate audio:LOSSLES. Waga: 62.7 GB. The Beatles – zespół rockowy z Liverpoolu, działający od 1960 (wcześniej jako The Quarrymen od 1956 r., Beatals, The Silver Beats, The Silver Beetles i The Silver Beatles) do 1970 roku.. Детали релиза The Beatles (1963 - 1970) [Vinyl] [FLAC (tracks)] Скачать. Discografia de The Beatles FLAC Download · 1963 - The Beatles - With the Beatles · 1964 - The Beatles - A Hard Day's Night · 1964 - The Beatles - Beatles for Sale.. Many of the songs on that album were covers, as the Beatles were short of new material at the time 29/ FLAC 24bit Lossless/RAR) Whatever else it is or …. Jun 4, 2013 — 2 (Disc 1) PURPLE CHICK Front Back THE BEATLES Let It Be Deluxe Vol. Ebbets remix, A, CR THE BEATLES, BACK TO BASICS: WITH THE BEATLES STUDIO SESSIONS, The Beatles Bootleg Bootlegs Purple Chick FLAC BBC Abbey Road Help. 04-29-2011 04:02 PM by Spensersdada.. 6CD+blu-ray box set (ster. The Beatles. Apple/UMe 4 LP box, 2LPs, 3CDs, 6CDs+Blu-Ray box. Produced by: George Martin (Original producer), Giles Martin (Re-mix producer) Engineered by: Ken Scott and Geoff Emerick (EMI), Barry Sheffield (Trident) Mixed by: Giles Martin (Mix engineer Sam Okell) Mastered by: Miles Showell 1/2 speed mastered at Abbey Road.. Results 1 - 25 The Beatles The Complete Discography of Original Studio Albums 320 and collectibility in the 90s Beatles Discography Flac Tpb books, ebooks, The Beatles-FLAC Discography 1963-2009 Free Download http: img156 Imageshack. Usimg1564394220pxthefabs.. A specially designed Flash interface has been installed, and the 16GB USB’s audio and visual contents will be provided in FLAC 44.1 Khz 24 bit and MP3 320 Kbps formats, fully compatible with both PC and Mac. The Beatles – Please Please Me (1963/2009) FLAC (tracks) 24 bit/44,1 kHz | Time – 32:28 minutes | 429 MB. Tracklist:. Download The Beatles MP3 Songs and Albu…. Claypool Lennon Delirium 2016-12-31 Fox Theater, Oakland, CA (2 Source Matrix) (24-bit) (FLAC) Paul McCartney 1989-11-08 Ahoy Sportspaleis Rotterdam, The Netherlands 043-PMWT (16-bit) (FLAC) Paul McCartney 1989-11-07 Ahoy Sportspaleis Rotterdam, The Netherlands 042-PMWT (16-bit) (FLAC) The Beatles 1968-xx-xx Whitology - Walrus Records (008/009. The Beatles Second Album Beatles 2021 From $7.49. 16-bit FLAC. Preview Love Me Do. Love Me Do The Beatles 2020 From $1.99. 16-bit FLAC. Preview Legends - The Beatles (The Early Days) Legends - The Beatles (The Early Days) The Beatles 2019 From $6.99. 16-bit FLAC.. The Beatles - Discography - 320kbps Bitrat…. It's The Beatles! - 7 December, 1963 1: From Me To You (youtube) 2: I Saw Her Standing There (youtube) 3: All My Loving (youtube) 4: Roll Over Beethoven …. Listen to music by The Beatles on Apple Music. Find top songs and albums by The Beatles including Here Comes the Sun (2019 Mix), Yesterday and more.. If you want maximum quality, flac, wav, etc., buy the cd. Reproduction for educational use only. No copyright infringement. 01beatles-rar. …. 1968 - The Beatles [White Album] CD1 1968 - The Beatles [White Album] CD2 1969 - Abbey Road 1969 - Yellow Submarine 1970 - Let It Be 2009 - Past Masters I 2009 - Past Masters II It sounds flawless on short listen. They all look very much like this in MediaInfo: Audio Format : FLAC. the-beatles-1-flac Scanner Internet Archive HTML5 Uploader 1.6.4 483 Views DOWNLOAD OPTIONS 1 file TORRENT 1 file ZIP 5 Files 5 Original SHOW ALL IN COLLECTIONS Community Audio Community Collections Uploaded by Fifo_F on May 25, 2020. The Beatles Deluxe Collection (Free Download! Get it while it's hot!) : beatles. It Can't Get No Worse! The Beatles Deluxe Collection (Free Download! Get it while it's hot!) I've spent a few months on and off working on a "Deluxe" version of each album. They are finally complete, and I'd love to share them with the world! These versions include:. Past Masters contains 33 non-album Beatles tracks - ranging from classic A-sides to hits sung in German - two CDs were released in 1988 called Past Masters Volume One and Volume Two. Although originally featuring a combination of mono and stereo versions, the remastered Past masters compilation contains only the stereo mixes, if they exist.. Apple Corps and Universal Music will next month reissue The Beatles ‘ 1967 album Sgt. Pepper’s Lonely Hearts Club Band as a six-disc super deluxe edition box set, 50 years after the original album was first released. This will be the very first time Apple have authorised a super deluxe edition box set of a Beatles studio long-player.. ===== Download Flac beatles mono >> Download ===== The Beatles (The Original Studio Recordings) – also known as The Beatles: Stereo Box – is a …. Updated 07-13-2011: A freshly updated list to many blogs and sites where you can download Beatles and solo bootlegs in FLAC and mp3. …. Beatles - No Reply.flac FlacMusicFinder.com indexes only links to video materials, which are public and free of charge at hostuje. Administration …. Please Please Me (24 BIT Remastered). FLAC-1.01, I Saw Her Standing There, 2:53. FLAC-1.02, Misery, 1:49. FLAC-1.03, Anna (Go To Him), 2:57.. The Beatles - Abbey Road (Original Recording Remastered) '1969/2009 (Classic Rock) Hi-Res 24bit/48kHz - FLAC FILE. Oct 09, 2019 To create Abbey Road's new stereo, 5.1 surround, and Dolby Atmos mixes, Martin and Okell worked with an expert team of engineers and audio restoration specialists at Abbey Road Studios.. The Beatles (White Album) ( Stereo ) (Vinyl) 1968 Not surprisingly, the album was a chart-topping success in the US and the UK It's All Too Much 06 Wild …. 300.000 Beatles Fans Can't Be Wrong (CD) Living Legend: 6 April - 1 August 1965: Beat DVD: 6 June - 29 November 1964: Beat DVD: A Cam - B Cam …. The Beatles Flac Download. 10/16/2019. The BEATLES ('White Album') was the first Beatles album to be released on the group's own Apple Records label. Issued in both stereo and mono for the U.K. And in stereo for the U.S., the double album was an immediate bestseller, entering the British chart at number one and remaining there for eight. CALIDAD MONO FLAC (DESCARGAR LAS DOS PARTES Y EXTRAE UNA SOLAMENTE): ALBUM THE BEATLES SINGLES #1 CALIDAD FLAC: . Hello everyone, I'm new to this forum and apologize if these questions have been asked before but I want to get things right before embarking on ripping my collection of approximately 1000 CDs. It seems like a worthy project to start during these difficult times but I want to avoid making mistakes. I plan to use the default settings for ripping to FLAC but would appreciate any advice on. The Beatles - Lossless - The Beatles Rockband Rubber Soul (Volume Nine Stereo Dolby Digital)(Beatcomber PCS 329) (1970) (FLAC) The Beatles - Lossless - The Beatles Something Extra (1970) (FLAC) The Beatles - Lossless - Beatles VI (NZ-UK Export 24 96 Needledrop)(Qcumbaman) (1970) (FLAC). The Beatles - Mono Box Set (Original Recording Remastered 2009) [FLAC ] Rock | Flac + CUE + LOG | 11 CD | 2009 | 2.73 GB The Beatles Mono Box Set was compiled as a special interest package for the hard-core fan. It presents the first ten albums in re-mastered mono (the final 3 albums made their debuts in stereo only), and a double album of. After the amazing masterpieces of Revolver and Sergeant Pepper’s, The Beatles dove back into the art of pure writing, bringing about a certain level of sobriety and leaving aside their recent psychadelic delusions, awesome as they were. Released in November 1968, this double White Album is a return to more refined pop and rock; the essence of. The Beatles (The White Album) [The Beatles In Mono], 2014, 11, 09, 14, Lossless, Vinyl.. Disc 1: 01 - Back In The U.S.S.R. (2018 Mix) 02 - Dear Prudence (2018 Mix) 03 - Glass Onion (2018 Mix) 04 - Ob-La-Di, Ob-La-Da (2018 Mix) 05 - Wild Honey …. Escucha gratis a The Beatles – The Beatles Greatest Hits FLAC Collection. Descubre más música, conciertos, videos y fotos con el catálogo musical online de . Beatles 24 Bit FLAC and Mono : beatles - re…. Can't Buy Me Love (2:14) 11. I Feel Fine (2:14) 12. Hey Jude (7:43) Notes: [URT Vol. 1] is the CD that turned the entire record industry on it's ear. In the late …. 6. The Beatles – None (00:03:37) 7. The Beatles – Dig A Pony (Take 14) (00:04:01) 8. The Beatles – Get Back (Take 8) (00:03:52) 9. The …. The FLAC format offers a great way to listen to high-quality digital music. It typically uses half the storage space required by uncompressed …. Yellow Submarine was only mixed in stereo too. And even though the White Album was the last one mixed in mono and stereo, I would say stereo was the main format already: The Beatles themselves started attending the stereo mixing sessions, Revolution 9 and possibly Revolution 1 (there are conflicting reports about it) were only mixed in stereo and the mono were fold down.. Buy The Beatles (2009 Digital Remaster - USB Version) by The Beatles Download \'The Beatles - The Black Album - Boyhood - Flac\' torrent (Audio » Lossless). Download millions of torrents with TV series, movies, music, PC/Playstation/Wii. Aug 15, 2018 · "The Beatles - Let It Be (HQ Audio)" is a high quality FLAC of "Let It Be" by The Beatles. There's no question that the Beatles were a revolution, changing the face of music and arguably the world in their wake. The 16GB drive inscribed with the band's name includes all 14 digitally remastered LPs in 24-bit 44.1kHz FLAC and 320kbps MP3 format along with 13 mini-documentary films and liner notes. Only 30,000 of these apple. Sep 15, 2020 · The Beatles arrived in Amesbury on Sunday 2nd May 1965 for three-day shoot on Salisbury Plain for the military[] Paul McCartney & Ringo …. 01. Love Me Do - The Beatles.flac 02. From Me To You - The Beatles.flac 03. Thank You Girl - The Beatles.flac 04. She Loves You - The …. Staff · September 10, 2009. The Beatles' catalog finally got remastered on September 9th. The group's 13 albums were released on CD, both individually …. The Beatles were an English rock band formed in Liverpool in 1960. With members John Lennon, Paul McCartney, George Harrison and Ringo Starr, they became widely regarded as the foremost and most influential music band. Rooted in skiffle, beat and Read more Genres: International Rock, Pop Rock, Classic Rock, Psychedelic Rock. FLAC - Beatles - Glyn Johns Early Mix Acetate mp3 - Beatles - Glyn Johns_Early Mix acetate_mp3 Part 2 Get Back Album - Glyn Johns 1st (original) version (Dr. Ebbetts release) tracklist 1. One After 909 2. Rocker 3. Save The Last Dance For Me 4. Don't Let Me Down 5. Dig A Pony 6. I've Got A Feeling 7. Get Back 8. For You Blue 9. Teddy Boy. UPDATES . January 16, 2022. THE BLACK ALBUM was uploaded.. January 29, 2022. VEGEMITE and its knock off SWEET APPLE TRAX Vol. III was uploaded.. February 15, 2022. JOHN, PAUL, GEORGE & JIMMY, by Wizardo Records, was uploaded. Los Angeles | London – January 27, 2022 – On January 30, 1969, The Beatles famously staged their final live performance on the rooftop of their Apple Corps headquarters in London’s Savile Row. This Sunday’s 53rd anniversary will be celebrated with an exciting slate of special releases, events and announcements, with The Beatles leading. The Beatles Deluxe Collection (Free Download! Get it while it's hot!) : beatles. It Can't Get No Worse! The Beatles Deluxe Collection (Free Download! Get …. 300.000 Beatles Fans Can't Be Wrong (CD) Living Legend: 6 April - 1 August 1965: Beat DVD: 6 June - 29 November 1964: Beat DVD: A Cam - B Cam Stereo At Twickenham (CD. How to tell "introducing the beatles" is real of fake? So quick story time, looking through local dollar bins and came across a copy of introducing the beatles. Not …. Original Beatles' stereo albums up to 1968 (including the 2009 remasters) sound weird, due to the recording process where mono was the aim and stereo was definitely not. Order by Phone Toll Free 1-888-926-2564 Fax 785-825-0156 Phone Outside USA 785-825-8609 Email Us L7 - Maneater Recorded Live on the "Bricks are Heavy European Tour", Summer. Part 1. Untouched: Revision A. Upgraded source of Glyn Johns' early mix acetate (March 10, 1969) containing the 'rough mix' work-in-progress of the Get Back Album. The Pet Sounds Production - de-clicked, phase-corrected and speed-corrected. Plus Bonus tracks from Johns' 'Rock n Roll Oldies' mixes (March 13 Acetate) - Taken from the boot 'Get. The Beatles - Original Best Selection / The Beatles Story / Another The Beatles Story/Super Selection (1985) [FLAC (tracks + .cue)] 5 British Rock and Roll , Britpop , Classic Rock , .Compilation , .Japanese Edition. The Beatles - Lossless - The 'Let It Be' Rehearsals, Vol. 2 (1970) ( FLAC ) The Beatles - Lossless - (Ultimate) Live In Japan 1966 (Walrus) (1970) ( FLAC ) The Beatles - Lossless - 1 [ flac ] (1970) ( FLAC ) The Beatles - Lossless - 4 Others (1970) ( FLAC ) The Beatles - Lossless - 7 June To 10 June 1964 Hong Kong (Lazy Tortoise) (1970) ( FLAC. The thing that jumps out at me most on this new Stereo remix included in The Beatles' White Album 50th Anniversary boxed set is the rhythm section which appears much more. 14 - Beatles VI (Ebbetts Stereo + Mono) 1965 The Beatles were late to the table with the first CD releases, but the first go was a pretty good job and I certainly agreed with. The Long And Winding Road (2021 Mix) FLAC 11. For You Blue (2021 Mix) FLAC 12. Get Back (2021 Mix) FLAC 13. Morning Camera Two Of Us (Take …. The Beatles Discography 1963 2013 Flac » music discography 1 1 year 33 GB 14 14 The Beatles 24bit Limited USB Collection FLAC Bubanee …. 価格:19,800円税込. 同名映画製作と同時進行したレコーディングの膨大な音源をフィル・スペクターがリプロデュースしたザ・ ビートルズ 最後のアルバム(全英 …. the beatles complete songbook 5 she's leaving home 173 being for the benefit of mr.kite 175 within you without you 175 when i'm sixty-four 176 lovely rita 177 good morning good mor ning 178 sgt pepper's lonely hearts club band (reprise) 180 a day in the life 182 magical mistery tour 184 magical mistery tour 184 the fool on the hill 185 flying 186 blue jay way 188. THE BEATLES, COMPLETE HOME RECORDINGS, 1958-1969, B+, 7CR THE BEATLES, FOR NO ONE, 1960-1968, The best of Beatles private recordings, B+, CR THE QUARRY MEN & THE BEATLES, PUTTIN' ON THE STYLE, 1957-1963, Liverpool + Hamburg, B+, CR THE BEATLES, KICKS, KUDOS & CASH 1957 TO 1962, Lord Raith, A-, 2CR. The Beatles – Yellow Submarine Songtrack (1999) [CD-Quality + Hi-Res Vinyl Rip] Vinyl Rip | Hi-Res / FLAC Tracks / 24bit / 96kHz & 192kHz | CD-Quality . After the amazing masterpieces of Revolver and Sergeant Pepper’s, The Beatles dove back into the art of pure writing, bringing about a …. Download The Beatles - The Beatles (White Album) DSD LP Year Of Release: 1968 Genre: Rock Format: dff, Tracks Bitrate: lossless Total Size: . *The Beatles (White Album) *Yellow Submarine *Let It Be *Abbey Road *Past Masters I & II *All stereo songs in FLAC (44.1khz) and in DRM-free MP3 (320kpbs) with a one-click 'Export To Media Player' function *13 mini-documentaries in MPEG4 video format. Disc 1: 01 - Back In The U.S.S.R. (2018 Mix) 02 - Dear Prudence (2018 Mix) 03 - Glass Onion (2018 Mix) 04 - Ob-La-Di, Ob-La-Da (2018 Mix) 05 - Wild Honey Pie (2018 Mix) 06 - The Continuing Story Of Bungalow Bill (2018 Mix) 07 - While My Guitar Gently Weeps (2018 Mix) 08 - Happiness Is A Warm Gun (2018 Mix) 09 - Martha My Dear (2018 Mix). Aug 19, 2015 The Beatles – Stereo Box Set (2009) USB Limited Edition 24 bit/44,1 kHz The Beatles – A Hard Day’s Night (1964/2009) FLAC (tracks) 24 bit/44,1 kHz Time – 30:09 minutes 445 MB Tracklist: 01 – A Hard Day’s Night 02 – I Should Have Known Better 03 – If I Fell 04 – I’m Happy Just To Dance With You 05 – And I Love... project zomboid anvil. Abbey Road by the Beatles has been remixed for Dolby Atmos and Surround and available in a dluexe box set on Blu-ray. Of most interest to readers here is the Blu-ray disc which contains both a 7.1.4 Dolby Atmos 96kHz / 24-bit mix of the whole album, along with a DTS HD Master Audio 96kHz / 24-bit 5.1 surround version of the whole album for.. The Beatles – Don\’t Let Me Down [03:35] 11. The Beatles – Drive My Car [02:28] 12. The Beatles – Eight Days a Week [02:43] 13. The Beatles – Eleanor Rigby [02:06] 14. The Beatles – From Me to You [01:57] 15. The Beatles – Get Back [03:09] 16. The Beatles – Golden Slumbers [01:31] 17. The Beatles – Hello Goodbye [03:28] 18. Released: 1986. MP3 album: 1971 mb. FLAC album: 1481 mb. Rating: 4.1. Other formats: AAC MP1 XM WMA AUD ADX DXD. Genre: Rock. Download FLAC Download MP3. More.. A different mix of the song later became the closing track of Let It Be (1970), which was the Beatles' last album released just after the group split.. Source: Dr. Ebbetts version 2 of the unreleased US album. Lineage: cd > eac [sercure] 16bit 44.1khz wav > Flac16. 01. Come And Get It - take 1. 02. Leave My Kitten Alone - take 5. 03. Not Guilty - take 102. 04.. The FLAC Beatles is the best effing Beatles I have ever heard. Unbelievably good, and I am not prone to audio hyperbole. These really are eye …. Pbthal, spectrum analysis shows FLAC for this EP to be remarkably similar to his red wax LP FLAC, and indeed it sounds like it (see also remarks for pbthal’s EP FLAC for “Chains”) 7 - December 1963 / February 1964 (Hd Remastered Edition) The Beatles 2018 From £4 Beatles Flac Blogspot For Details on FLAC (Free Lossless Audio Codec The name of the band came from a comment made by Mothers. The Beatles have an agreement with EMI to pump out 30,000 apple-shaped USB drives loaded with the band's music in FLAC 44.1KHz 24bit—higher than 16-bit CD quality—and 320Kbps MP3 files. At. Now, The Beatles are releasing a suite of lavishly presented White Album packages. The album’s 30 tracks are newly mixed by producer Giles Martin …. The Beatles Flac Download. 10/16/2019. The BEATLES (‘White Album’) was the first Beatles album to be released on the group’s own Apple Records label. Issued in both stereo and mono for the U.K. And in stereo for the U.S., the double album was an immediate bestseller, entering the British chart at number one and remaining there for eight. flac 38 MB; 07 4 GB The Beatles - 2019 - Abbey Road (Super Deluxe Edition) (3CD) [FLAC] (miok) 793 MB Various Artists - The Many Faces of The Beatles (2016) [Box 3CD][Flac] 582 MB Here is the link to both the Beatles in 24 Bit FLAC and mono for all of you who havent experienced them in this format The Beatles – brytyjski pop-rockowy zespół. The Beatles - Washington DC - Credit to theINDrAS Across the Universe Soundtrack - Credit to Pangeran_kucin6 Real Love Album ( Flac 73MB Cover) Free as a bird ( Flac 86MB Cover The Beatles - The Beatles (White Album) German Direct Metal Mastered [Dr. Ebbetts + Mirror Spock].. Read more. The Beatles were an English rock band formed in Liverpool in 1960. With members John Lennon, Paul McCartney, George Harrison and Ringo Starr, they became widely regarded as the foremost and most influential music band. Rooted in skiffle, beat and 1950s rock and roll, the Beatles later experimented with several musical styles, ranging. VA - The Beatles Aint She Sweet The Early Tapes Of The Beatles (2002) Artist: VA, The Beatles, Tony Sheridan, The Beat Brothers. Title: The Beatles Aint She Sweet The Early Tapes Of The Beatles. Year Of Release: 2002. Label: Universal. Genre: Rock, Rock'n'Roll. Quality: FLAC (tracks) | Mp3 / 320kbps. Total Time: 40:50.. FLAC: Beatles: Alternate Sgt Pepper PearAbbey Road Pear: Hungercity: 2070: 2007-05-24: 1: CDAudio: FLAC: Beatles: Alternate Yellow Submarine Pear: …. The Beatles - Anthology Outtakes (Studio FLAC) Anthology Outtakes Publisher: Beat Central Reference :CT-200411/CT-200412. Date :2004. Made In :Japan. The Beatles Discography Dr Ebbetts Pack 1 FLAC/ Beatles , The - 1962-1966 (US Stereo Ebbetts)/CD1/ Beatles , The - 1962-1966 CD 1 of 2 (US Stereo …. Download The-Beatles-FLAC Fast and for Free. A two-hour. FLAC (Free Lossless Audio Codec) is a lossless audio compression format, audio data is compressed without any loss, supports metadata tagging, stream format, fast seeking and more. beatles flac results 1 - 19 from 19. 14 - The Beatles Abroad - Twist & Shout - The Beatles.. · Home » Beatles » The Beatles – Greatest Hits (PBTHAL 24-96 FLAC) Muzica noua – [10-Aug-2021] Tracklist The Beatles – Greatest Hits (PBTHAL …. THE BEATLES, NOTHING BUT AGEING: REMASTERED EDITION, 2011 Remasters Workshop Edition, A, CR THE BEATLES, NOW AND THAN: EXTENDED VERSION, unreleased album, A, 2CR THE BEATLES, NOW AND THEN: THE LOST ALBUM, unreleased songs, A, CR THE BEATLES, RARITIES (US) (Dr. Ebbets), A, CR THE BEATLES, RARITIES 3 - THE FINAL MIXES, George Martin 1976 remixes. The USB drive contains all 14 of the band's studio albums, including both FLAC format and a 320 kbps mp3s. It is the same material that was . Most people can't tell the difference between a well-encoded lossy file vs. a FLAC file in blind tests, so I'm sure you wouldn't notice the difference between 24 and 16 bit FLAC. The 24 bit remasters have been compared to the 16 bit CD masters and they're basically identical. The extra 8 bits just bloats the file size.. The Beatles - Rubber Soul. Rubber Soul es otro de los discos Remasterizados digitalmente de The Beatles cuyo lanzamiento oficial es el 09-09-2009. Grabado en sólo cuatro semanas, Rubber Soul logró el quinto puesto de la lista de los mejores discos de la historia, realizada por la revista Rolling Stones.. Year Of Release: 2020. Label: Self-Released. Genre: Rock, Pop. Quality: 320 kbps / FLAC (tracks, scans) Total Time: 30CD. Total Size: 5.66 gb / …. The Beatles - Let It Be Artist: The Beatles | Album: Let It Be | Style: Rock | Year: 2021 [1970 original] | Quality: DVD-Audio (MLP 5.1 96kHz/24Bit, MLP 5.1 …. 23 seven-inch singles in a box • Cut from original mono/stereo tapes. By Paul Sinclair. 247. Apple Corps and Universal Music will issue The Singles Collection in November, a new Beatles box set that gathers all of their seven-inch vinyl single releases together in one box set. The package gathers all 22 UK singles from the original era with. The Beatles. USB Apple - MP3/Flac (Version Remasterisée, 16 CD). Audio-CD. Nous sommes à ta recherche ! Nos bons contacts avec des . THE BEATLES DTS. Sgt Pepper's Lonely Hearts Club Band 5.1 DTS. Magical Mystery Tour 5.1 DTS. Abbey Road 5.1 DTS. A Collection Of Beatles Oldies 5.1 DTS. THE BEATLES SINGLE. UK Singles Collection Volume 1 . UK Singles Collection Volume 2 . The U.S. Singles Collection Volume 1 .. The Beatles - Abbey Road (Original Recording Remastered) '1969/2009 (Classic Rock) Hi-Res 24bit/48kHz - FLAC FILE. Sep 17, 2019 The last Beatles album to be recorded (although Let It Be was the last to be released), Abbey Road was a fitting swan song for the group, echoing some of the faux-conceptual forms of Sgt. Pepper, but featuring stronger compositions and more rock-oriented ensemble work.. A specially designed Flash interface has been installed, and the 16GB USB's audio and visual contents will be provided in FLAC 44.1 Khz 24 bit and MP3 320 Kbps formats, fully compatible with both PC and Mac. The Beatles - Please Please Me (1963/2009) FLAC (tracks) 24 bit/44,1 kHz | Time - 32:28 minutes | 429 MB. Tracklist:. The Beatles - Lossless - The 'Let It Be' Rehearsals, Vol. 2 (1970) (FLAC) The Beatles - Lossless - (Ultimate) Live In Japan 1966 (Walrus) (1970) (FLAC) The Beatles - Lossless - 1 [flac] (1970) (FLAC) The Beatles - Lossless - 4 Others (1970) (FLAC) The Beatles - Lossless - 7 June To 10 June 1964 Hong Kong (Lazy Tortoise) (1970) (FLAC) The Beatles - Lossless - the 7 years of christmas (1970) (FLAC). DISCLAIMER. We are researchers who specialize in the Beatles discography. We do not deal, produce or sell bootlegs and cannot give any advice on where it is possible to find these records.. Abbey Road's Super Deluxe box set presents 40 tracks - including "The Long One" Trial Edit & Mix for the album's epic Side 2 medley - on three CDs (stereo) and one Blu-ray disc (Dolby Atmos, 96kHz/24 bit high resolution stereo, and 96 kHz/24 bit DTS-HD Master Audio 5.1). The four discs are housed in a slip-sleeved 12" by 12" 100. 1965 - The Beatles VI 1965 - The Early Beatles 1966 - Revolver 1966 - Yesterday and Today 1967 - Magical Mystery Tour 1967 - Sgt. Pepper's Lonely Hearts Club Band 1968 - The Beatles [White Album] 1969 - Abbey Road 1969 - Yellow Submarine 1970 - Hey Jude 1970 - In The Beginning 1970 - Let It Be 1973 - The Beatles 1962 - 1966. The Beatles - Abbey Road (Original Recording Remastered) '1969/2009 (Classic Rock) Hi-Res 24bit/48kHz - FLAC FILE. Oct 09, 2019 To create Abbey Road’s new stereo, 5.1 surround, and Dolby Atmos mixes, Martin and Okell worked with an expert team of engineers and audio restoration specialists at Abbey Road Studios.. (Rock) [CDR] The Beatles - US Stereo & Mono Albums Collection (1964-1970), Dr. Ebbetts [2001-2008], FLAC (image+.cue), lossless » Classic Rock & Hard Rock . The Beatles là ban nhạc rock người Anh hoạt động trong thập niên 1960. Với 4 thành viên John Lennon, Paul McCartney, George Harrison và Ringo Starr, bộ tứ …. The other three Beatles reunited in 1995 to recordThe Beatles Anthology, a double disc compilation of unreleased songs and live versions of hits. The most notable song was the new composition Free as a Bird. It was made on the basis of Lennon's old record with the later addition of some instruments and vocals performed by the other members.. The Beatles - The Alternate Rubber Soul (2004) FLAC. GENRE: Rock FORMAT: Lossless (Flac) SIZE: 398mb (3% Recovery). (Rock) [WEB] The Beatles - The Beatles (The White Album) (Super Deluxe Edition) - 2018, FLAC (tracks), lossless Страницы: 1 Рок-музыка » Зарубежный Rock » Classic Rock & Hard Rock (lossless). This is the ongoing Beatles Outfake Collection, please comment or DM me if you have an Outfake. Addeddate 2021-07-25 09:51:59 …. Re: Convert Stereo FLAC to Mono FLAC Originally Posted by mville A word of advice, that this won't give you The Beatles (The Original Studio Recordings) in mono, rather, a mono version of The Beatles (The Original Studio Recordings) Stereo, and the level of the vocals and instruments will still differ from the The Beatles in Mono mixes.. Jan 08, 2010 · The Beatles released their "remastered" catalogue on a USB drive in 24-bit 44.1kHz FLAC. Lots of fans claim the 24-bit versions sound amazingly …. The Yardbirds - Live At The BBC 1965-1968 (Repertoire 2016) FLAC UK Pop Rock Psychedelic Blues s flac 29 MB; 04 PERFORMER "Beatles" INDEX …. The Beatles - Hey Jude / Revolution flac. Performer: The Beatles Title: Hey Jude / Revolution Style: Rock & Roll, Pop Rock Released: 31 Aug 1968. The Early Beatles sold one million copies by late 1973 and was certified gold on 8 January 1974 and platinum on 10 January 1997 by the RIAA. It was released in …. The Beatles USB memory stick is the digital version of The Beatles in Stereo Box Set which was released on 9/9/9. It includes all of the same remastered stereo mixes and all of the same visual content (including the mini documentaries, the photographs, the original LP artwork, and the extended liner notes.) The difference is that this version. album: "With The Beatles" (1963) It Won't Be Long. All I've Got To Do. All My Loving. Don't Bother Me. Little Child. Till There Was You. Please Mister Postman. Roll Over Beethoven. Hold Me Tight. You Really Got A Hold On Me. I Wanna Be Your Man. Devil In Her Heart. Not A Second Time. Money (That's What I Want). *The Beatles Stereo Box Set-2009-Musica (formato Flac)-Reino Unido The Beatles Stereo Box Set es el nombre distintivo de una caja recopilatoria que contiene . In other words, this is the way The Beatles were meant to be heard. I can't begin to describe the kind of clarity you'll hear on this on decent to good speakers. All stereo songs are in FLAC format (44.1khz) which is the highest possible quality and also in DRM-free MP3 (320kpbs) with a one-click 'Export To Media Player' function. It's truly. The Beatles "Here Comes The Sun" official video from the Abbey Road album. Out now: http://thebeatles.lnk.to/AbbeyRoad2019For more information visit http://a. The FLAC format offers a great way to listen to high-quality digital music. It typically uses half the storage space required by uncompressed music files. The sound is comparable to what you hear from a CD. There are also apps such as the FLAC Player that will allow you to listen using your iOS devices. Of course, you can always use the PonoPlayer.. the beatles complete songbook 2 index introduction 9 please please me 10 i saw her standing there 10 misery 12 anna (go with him) 12 chains 13 boys 14 ask me why 15 please please me 17 love me do 19 p.s., i love you 20 baby it’s you 21 do you want to know a secret 21 a taste of honey 23 there’s a place 23 twist and shout 25 with the beatles. Full name of the track: The Beatles-Artifacts III Disc 1 (1969-1971) - 22 - John's_31st_Birthday Song: Yellow Submarine Album: Revolver Length: 2:47 Bootleg album: The Beatles Artifacts III Take: None Recorded: On John's 31st birthday.On October 9 1971 in a hotel room in Syracuse New York. Other notes: From BootlegZone : ''John celebrated his 31st birthday in a New York hotel room with. Is Apple doing a limited reissue of The Beatles Stereo USB? The USB has all songs in stereo in both FLAC format (24 bit 44.1 kbps) and . Obviously, the core is the Double Fantasy/Milk & Honey sessions (like the previous 70s Beatles albums) that seemed, imo, what would have been recorded by The Beatles. That was then paired with the Tug of War tracks that were either recorded or at least demoed *before* John was killed on December 8th, 1980.. The Beatles Greatest Hits PBTHAL 24-96 FLAC vinyl rip. UPLOADED. Close. 7. Posted by 2 days ago. The Beatles Greatest Hits PBTHAL 24-96 FLAC …. The English rock group the Beatles toured Germany, Japan and the Philippines between 24 June and 4 July 1966. The thirteen concerts comprised the first stage of a world tour that ended with the band's final tour of the United States, in August 1966.The shows in what was then West Germany represented a return to the country where the Beatles had developed as a group before achieving fame in 1963.. The Beatles – 21(2015) flac. The Beatles - 21. Unofficial Compilation Remastered.Distributed By – Chinese Dragon Music – John Lennon, Paul McCartney, . Audio CD Number of Discs: 1 Format: FLAC (image+cue) Label: Intersound Records Size: 159 MB Recovery: +3% Scan: yes 01. Eleanor Rigby 02. Here, There and. About Blogspot Beatles Flac . the beatles , rock, bootleg, compilation, flac A bootleg 'deluxe edition' of the Beatles ' critically acclaimed (but a tad overrated) 1967 album Sgt. The Beatles were a revelation to Epstein, with their youthful exuberance and. Beatles Ultra Rare Trax vol 6 ( flac 8) part1 (200 MB) Beatles Ultra Rare Trax vol 6. The Beatles - flac.xyz – Lossless & Hi-Res M…. Beatles 24 Bit FLAC and Mono Music https://drive.google.com/drive/folders/1oQ7FtMVyAfe8UMb9Q3v1M6u-ysTfmt4z?usp=sharing Here is the link to both the Beatles in 24 Bit FLAC and …. Listen to Beatles Anthology Revisited, a playlist curated by Garrett Livingston on desktop and mobile. SoundCloud Beatles Anthology Revisited by Garrett Livingston published on 2018-02-26T01:17:32Z. Contains tracks. Beatles Anthology Revisited #1 by mixtape, baby! published on 2017-01-29T22. The Beatles Discography 1963 2013 Flac » music discography 1 1 year 33 GB 14 14 The Beatles 24bit Limited USB Collection FLAC Bubanee » audio flac 1 9 months 7500 MB 17 7 The Beatles Sgt Peppers Lonely Hearts Club Band 1967 FLAC CUE RLG » music lossless 1 9 months 228 MB 12 6 Modern Jazz Celebrates the Beatles FLAC MP3 Big Papi Jazz R&a. Tracks1. Let It Be 2. Lady Madonna 3. Because 4. The Word 5. Norwegian Wood 6. Here, There, and Everywhere 7. Golden Slumber 8. And I …. The Official Beatles Shop | Limited Edition USB Stick - Contains Entire Digitally Remastered Catalogue Talk amongst yourselves, although I'm not vklemp.. Doug Parkinson - In And Out Of Focus 1966-1975 FLAC Australia Pop Rock s.a. FANNY ADAMS covers of THE BEATLES DONOVAN.zip · 509 MB · 0 . Source: Dr. Ebbetts version 2 of the unreleased US album. Lineage: cd > eac [sercure] 16bit 44.1khz wav > Flac16. 01. Come And Get It - take 1. 02. Leave My …. THE BEATLES SINGLES COLLECTION (December 1982 - EMI/Parlophone BSC 1) 27 disc set. United States. BEATLES 10TH ANNIVERSARY BOX SET 1964 …. Формат: FLAC, lossless. Размер: 3.7 Гб. Треклист: Album: Abbey Road (Remastered) 01 Come Together - The Beatles (4:11). Label: Apple Records, Capitol Records. Made in US. Catalog #: CDP 0946 3 57716 2 6. Style: Rock Year: 2006. Format: FLAC (image + .cue). The Beatles Deluxe Collection (Free Download! Get it while it's hot!) : beatles. It Can't Get No Worse! The Beatles Deluxe Collection (Free Download! …. The Beatles - Let It Be Artist: The Beatles | Album: Let It Be | Style: Rock | Year: 2021 [1970 original] | Quality: DVD-Audio (MLP 5.1 …. The Beatles – The Continuing Story Of Bungalow Bill – 3:14 (857 kbps , 19.85 MB) The Beatles – While My Guitar Gently Weeps – 4:45 …. FILE "The Beatles - Beatles VI (US Mono) (1965) [T 2358].flac" WAVE TRACK 01 AUDIO TITLE "Kansas City" INDEX 01 00:00:00 TRACK 02 AUDIO TITLE "Eight Days A Week" INDEX 01 02:37:09 TRACK 03 AUDIO TITLE "You Like Me Too Much" INDEX 01 05:23:59 TRACK 04 AUDIO TITLE "Bad Boy" INDEX 01 08:02:11 TRACK 05 AUDIO TITLE "I Don't Want To Spoil The Party. Compression Method: FLAC 245 choice outtakes, live concert tracks, demos, overdub sessions, and rehearsals (10CD). ARTIFACTS I (5 Discs) The Beatles …. Aug 10, 2021 · The Beatles – Greatest Hits (PBTHAL 24-96 FLAC) Muzica noua – [10-Aug-2021] 01.-From Me To You FLAC 02.-I Want To Hold Your Hand …. Love Me Do The Beatles 2020 From £1.49. 16-bit FLAC. Preview Love Me Do (With Andy White, 11Sep62) Love Me Do (With Andy White, 11Sep62) The Beatles 2019 From £0.69. 16-bit FLAC. Preview I Saw Her Standing There (Hamburg, 31Dec62) I Saw Her Standing There (Hamburg, 31Dec62) The Beatles 2019 From £0.69. 16-bit FLAC.. The best howtos and guides for me, when setting up EAC, were the Hydrogenaudio wiki and the Hydrogenaudio forums The Beatles release entire remastered catalog on limited edition USB stick (FLAC and MP3) I like the Beatles but 279 is a bit much for more than I want Bootleg Flac Bootleg Flac Code: Select all EAC extraction logfile from 10 In the. The Beatles - Lossless - The 'Let It Be' Rehearsals, Vol. 2 (1970) (FLAC) The Beatles - Lossless - (Ultimate) Live In Japan 1966 (Walrus) …. unofficial Beatles releases; Beatles bootlegs; Beatles discography; Beatles LP unofficial Beatles releases; Beatles bootlegs; Beatles discography; …. The Miles Davis Quintet – The Legendary Prestige Quintet Sessions (2019) FLAC; Amy Winehouse – Back to Black (2015) FLAC; Vandenberg – …. The other three Beatles reunited in 1995 to recordThe Beatles Anthology, a double disc compilation of unreleased songs and live versions of hits. The most notable …. Beatles lost album flac. Beatles lost album flac [email protected] [email protected] abbc gdpi jibc aaa nh bm kccb kt afj db aaa did kao bab jkil cdcc hhc bbb fe ddb babc clen bbef ec vtde cbab bou em qo bbb kooe. Compression Method: FLAC 245 choice outtakes, live concert tracks, demos, overdub sessions, and rehearsals (10CD). ARTIFACTS I (5 Discs) The Beatles Artifacts VOL.1 CD1 THE EARLY YEARS 1958-1963 01 - That'll Be the Day (Liverpool 1958) 02 - One After 909 (Hamburg 1960) 03 - I'll Follow the Sun (Hamburg 1960) 04 - Matchbox (Hamburg 1960). This is a long requested re-upload/upgrade, and I'll finally make good on my promise to do it: The 1970s Beatles albums. Christ I hate being the asshole that leaves a negative comment, but I have been trying to grab this in Flac or MP3 for the past hour or so and Megaupload keeps telling me this torrent failed to load, so I can't grab it. The Beatles - Real Love FLAC album. 67 MB 1963 With The Beatles/Cd/10 - You Really Got a Hold on Me. The Beatles - THE COLLECTION (MFSL)★Flac / 24bit/96khz / DVD-ROM 商品詳細 The Beatles The Collection (13 Albums)をFlac ファイルで3枚のDVD-ROMに収録。. ----- [Dr. Listen to free internet radio, news, sports, music, and podcasts.. The Beatles Flac Music Blogspot Gepost door Unknown op 23:25 3 opmerkingen: Released in April 2003 as the second single from their third album, More Than You Think You Are (2002), it was written by Matchbox Twenty lead singer Rob Thomas Crab Snare Washington Released in April 2003 as the second single from their third album, More Than You Think. With The Beatles. A Hard Day's Night. Beatles For Sale. Help! Rubber Soul. Revolver. Sgt Pepper's. Magical Mystery Tour. White Album. Abbey Road. Let It Be. Songs The Beatles Gave Away. From Then To You. Hollywood Bowl. The Long And Winding Road (2021 Mix) FLAC 11. For You Blue (2021 Mix) FLAC 12. Get Back (2021 Mix) FLAC 13. Morning Camera Two Of Us (Take 4) FLAC 14. Maggie Mae Fancy My Chances With You (Mono) FLAC 15. Can You Dig It FLAC 16. I Don't Know Why I'm Moaning (Speech Mono) FLAC 17. For You Blue (Take 4) FLAC 18. Let It Be Please Please Me Let. Beatles Flac download on RapidTrend.com rapidshare search engine - The Beatles 2009 Rubber Soul 2009 Remaster FLAC part1, fullman The Beatles 2009 Yellow Submarine 2009 Stereo Remaster FLAC part1, .. Now, The Beatles are releasing a suite of lavishly presented White Album packages. The album's 30 tracks are newly mixed by producer Giles Martin and mix engineer Sam Okell in stereo and 5.1 surround audio , joined by 27 early acoustic demos and 50 session takes, most of which are previously unreleased in any form. "/>. 01. Love Me Do - The Beatles.flac 02. From Me To You - The Beatles.flac 03. Thank You Girl - The Beatles.flac 04. She Loves You - The Beatles.flac 05. I'll Get You - The Beatles.flac 06. I Want To Hold Your Hand - The Beatles.flac 07. This Boy - The Beatles.flac 08. Komm, Gib Mir Deine Hand - The Beatles.flac 09. Sie Liebt Dich - The Beatles. The Beatles - The Beatles 1962-1966 (The Red Album) - Remastered + [FLAC] The Beatles - The Beatles (White Album - Super Deluxe) …. Sgt. Pepper's Lonely Hearts Club Band (Reprise) (The Beatles) - download. The Beatles – The Beatles 50th Anniversary Super Deluxe Edition (2018) [FLAC] Given that it also contains Lennon, Ono and Harrison’s nine …. The Beatles – Abbey Road (Remastered) (FLAC) (Mp3) http://www.barboflacmusic.com/the-beatles-abbey-road-remastered-flac-mp3/. 1/ Air Supply - 1993 - The Vanishing Race [FLAC - Lossless - Log] 01 - It's Never Bad Boy) 16-bit FLAC Preview BBC Archives Vol 7 - December 1963 / February 1964 (Hd Remastered Edition) The Beatles 2018 From £4 If the mode is set to one of the Rename or Copy options, then the files will be moved or copied to the new destination, while preserving the existing file and folder structure One. Download rock album by The Beatles - Love (2006) DTS 5.1. Hello! Please login. New. Lost. Music Search. To immediately find what you need to enter a keyword …. Love Me Do The Beatles 2020 From £1.49. 16-bit FLAC. Preview Love Me Do (With Andy White, 11Sep62) Love Me Do (With Andy White, 11Sep62) The …. Avocado, 1970 A very early Beatleg. One side of pirated singles (plus the WWF version of "Across The Universe"), one side lifted from Kum. Source: …. 18 degrees in astrology, braylen novak, best book on wyckoff method, shroomery grow kit, 8 dpo symptoms gone, flatcam settings, xc7a35t, new holland 849 round baler parts diagram, closet in korean, celebrities with downturned eyes, arctic cat 400 cdi, harley davidson custom paint sets for sale, strong prayers for court cases, your payment method was declined google play, atm transfer limit in nigeria, paywall bypass website, how many binary strings of length n are there, salesforce metadata api retrieve example, btconline io, harman kardon harley davidson radio no sound, weyerhaeuser hunting leases alabama, brittany williams twitter, ruthless answer key, baby onesie knitting pattern free, outbacker antenna, sfx makeup, windows file share slow performance, oxalates in herbs, tiny house builders wisconsin, dz60 rgb hot swap, transmission interchange chart, mutual attraction signs reddit, nr2003 xfinity template, can i paint over pvc, usps package intercept reddit, i4 accident today plant city, positive opk but bleeding, steve rogers x reader he insults you, naruto terraria mod, carburetor choke cable, hotkeynet macros, sweardle answer, samsung retail mode carrier password